Welcome guest, is this your first visit? Create Account now to join.
  • Login:

Welcome to the Filmhot.us Download DVD Ca Nhạc - DVD Phim Bộ - DVD Phim Lẻ - Phần Mềm....

If this is your first visit, be sure to check out the FAQ by clicking the link above. You may have to register before you can post: click the register link above to proceed.

Results 1 to 3 of 3
  1. #1
    Join Date
    Mar 2011
    Posts
    598
    Total 'Thanks' Received by This User
    0 For This Post
    352 Total

    Bi, Đừng Sợ - BI! Don't Be Afraid (2010) PAL DVD DD2.0 x264-SDvB phim việt nam 18+


    [CODE]Tên phim: Bi, Đừng Sợ - BI! Don't Be Afraid (2010) Đạo diễn: Phan Đăng Di Diễn viên chính: Kiều Trinh, Thành Minh, Hà Phong, Trần Tiến Thể loại: Tâm Lý Đánh giá: 7.1/10 (42 votes) Thời lượng: 90 phút Ngôn ngữ: Việt Quốc gia: Việt Nam[/CODE]info
    [CODE]
    Complete name : Bi.dung.so!.2010.PAL.DVD.DD2.0.x264-SDvB
    Format : Matroska
    File size : 1.10 GiB
    Duration : 1h 31mn
    Overall bit rate : 1 724 Kbps
    Movie name : SDvB ~ all.hdvnbits.org
    Encoded date : UTC 2011-03-20 10:34:43
    Writing application : mkvmerge v4.6.0 ('Still Crazy After All These Years') built on Mar 10 2011 02:50:32
    Writing library : libebml v1.2.0 + libmatroska v1.1.0

    Video
    ID : 1
    Format : AVC
    Format/Info : Advanced Video Codec
    Format profile : High@L3.1
    Format settings, CABAC : Yes
    Format settings, ReFrames : 11 frames
    Codec ID : V_MPEG4/ISO/AVC
    Duration : 1h 31mn
    Bit rate : 1 531 Kbps
    Width : 720 pixels
    Height : 576 pixels
    Display aspect ratio : 16:9
    Frame rate : 25.000 fps
    Standard : PAL
    Color space : YUV
    Chroma subsampling : 4:2:0
    Bit depth : 8 bits
    Scan type : Progressive
    Bits/(Pixel*Frame) : 0.148
    Stream size : 979 MiB (87%)
    Title : SDvB ~ all.hdvnbits.org
    Writing library : x264 core 114 r1913 5fd3dce

    Language : Vietnamese

    Audio
    ID : 2
    Format : AC-3
    Format/Info : Audio Coding 3
    Mode extension : CM (complete main)
    Codec ID : A_AC3
    Duration : 1h 31mn
    Bit rate mode : Constant
    Bit rate : 192 Kbps
    Channel(s) : 2 channels
    Channel positions : Front: L R
    Sampling rate : 48.0 KHz
    Bit depth : 16 bits
    Compression mode : Lossy
    Stream size : 126 MiB (11%)
    Title : SDvB ~ all.hdvnbits.org
    Language : Vietnamese

    Menu
    00:00:00.000 : en:Chapter 1
    00:00:08.480 : en:Chapter 2
    00:01:35.600 : en:Chapter 3
    00:08:44.240 : en:Chapter 4
    00:19:26.000 : en:Chapter 5
    00:25:38.480 : en:Chapter 6
    00:33:10.160 : en:Chapter 7
    00:41:50.480 : en:Chapter 8
    00:52:44.240 : en:Chapter 9
    01:14:38.480 : en:Chapter 10
    01:29:13.680 : en:Chapter 11
    01:30:53.040 : en:Chapter 12

    [/CODE]


    Bi, Đừng Sợ! là câu chuyện về các thành viên trong một gia đình trung lưu ở Hà Nội với nhiều mong ước và những ẩn ức sâu kín muốn che giấu. Câu chuyện thực sự bắt đầu khi ông nội Bi trở về nhà sống cùng gia đình sau nhiều năm xa cách. Những nỗi niềm của các thành viên trong gia đình dần dần được hé lộ, đan xen nhiều niềm vui, nỗi buồn và cả những xúc cảm tê buốt như chính viên đá lạnh hiện hữu từ đầu đến cuối phim.
    Bộ phim giành được 5 giải thưởng trong các liên hoan phim quốc tế danh tiếng như Vancouver, Cannes, Stockholm Thụy Điển…trong đó có giải thưởng phim đầu tay xuất sắc nhất, kịch bản xuất sắc nhất. Bi, Đừng Sợ! đã có cuộc chinh phục khán giả quốc tế ngoạn mục trước khi ra mắt khán giả Việt Nam ngày 18-03.
    Download links

    View more random threads same category:

    Reply With Quote Reply With Quote

  2. #2
    mylove77 Guest
    Phim hay thật. Cảm ơn bạn đã post lên cho mọi người xem!
    Reply With Quote Reply With Quote

  3. #3
    mylove77 Guest
    Có cả cảnh nóng nữa à!
    Reply With Quote Reply With Quote

Similar Threads

  1. Replies: 1
    Last Post: 02-05-2012, 07:12 AM
  2. Replies: 0
    Last Post: 01-20-2012, 01:18 AM
  3. Replies: 24
    Last Post: 01-19-2012, 07:27 PM
  4. Replies: 15
    Last Post: 01-15-2012, 09:03 AM
  5. Replies: 8
    Last Post: 01-08-2012, 01:12 PM

Tags for this Thread

Bookmarks

Posting Permissions

  • You may not post new threads
  • You may not post replies
  • You may not post attachments
  • You may not edit your posts
  •